Game.of.Thrones.S07E04.The.Spoils.of.War.1080p.AMZN.WEBRip.DDP5.1...

  • Category TV
  • Type HD
  • Language English
  • Total size 3.0 GB
  • Uploaded By MrStark
  • Downloads 14967
  • Last checked 1 week ago
  • Date uploaded 2 weeks ago
  • Seeders 5051
  • Leechers 759
80%
August 7, 2017, 3:00 am

Infohash : ABC014971E2C429011371131D20516F28602E54B






Summary : Nine noble families fight for control over the mythical lands of Westeros, while a forgotten race returns after being dormant for thousands of years.



Video

ID : 1
Format : AVC
Format/Info : Advanced Video Codec
Format profile : [email protected]
Format settings, CABAC : Yes
Format settings, ReFrames : 4 frames
Codec ID : V_MPEG4/ISO/AVC
Duration : 51mn 21s
Bit rate mode : Variable
Bit rate : 7 858 Kbps
Maximum bit rate : 15.0 Mbps
Width : 1 920 pixels
Height : 1 080 pixels
Display aspect ratio : 16:9
Frame rate mode : Constant
Frame rate : 23.976 (24000/1001) fps
Color space : YUV
Chroma subsampling : 4:2:0
Bit depth : 8 bits
Scan type : Progressive
Bits/(Pixel*Frame) : 0.158
Stream size : 2.82 GiB (92%)
Default : Yes
Forced : No
Color range : Limited
Color primaries : BT.709
Transfer characteristics : BT.709
Matrix coefficients : BT.709

Audio

ID : 2
Format : E-AC-3
Format/Info : Audio Coding 3
Format settings, Endianness : Big
Codec ID : A_EAC3
Duration : 51mn 21s
Bit rate mode : Constant
Bit rate : 640 Kbps
Channel(s) : 6 channels
Channel positions : Front: L C R, Side: L R, LFE
Sampling rate : 48.0 KHz
Frame rate : 187.500 fps (256 spf)
Compression mode : Lossy
Delay relative to video : 7ms
Stream size : 235 MiB (8%)
Language : English
Default : Yes
Forced : No

Subtitles : English








Thanks to the original encoder and uploader


Files:

Game.of.Thrones.S07E04.The.Spoils.of.War.1080p.AMZN.WEBRip.DDP5.1.x264-GoT[rarbg]
  • Game.of.Thrones.S07E04.The.Spoils.of.War.1080p.AMZN.WEB-DL.DDP5.1.H.264-GoT.mkv (3.0 GB)
  • RARBG.txt (0.0 KB)

Comments

Code:

  • http://tracker.trackerfix.com:80/announce
  • udp://9.rarbg.me:2710/announce
  • udp://9.rarbg.to:2710/announce