Toilet Ek Prem Katha (2017) - 1CD - DesiPreDVD-Rip - Hindi - x264...

  • Category Movies
  • Type Bollywood
  • Language Hindi
  • Total size 705.2 MB
  • Uploaded By Mafiaking
  • Downloads 5225
  • Last checked 1 day ago
  • Date uploaded 5 days ago
  • Seeders 51
  • Leechers 26

Infohash : EC8B90884BB4E95D890DE0C6B840676EF8AE08DD










Quote:







Ratings: 7.9/10

Genere: Comedy, Drama, Romance

General
Unique ID : 175198110869317702027561566475216031644 (0x83CDEDC555877901A7DC509A68510F9C)
Complete name : Toilet Ek Prem Katha (2017) - 1CD - DesiPreDVD-Rip - Hindi - x264 - AAC - Mafiaking - M2Tv.mkv
Format : Matroska
Format version : Version 4 / Version 2
File size : 701 MiB
Duration : 2 h 29 min
Overall bit rate : 656 kb/s
Movie name : Toilet Ek Prem Katha (2017) - 1CD - DesiPreDVD-Rip - Hindi - x264 - AAC - Mafiaking - M2Tv
Encoded date : UTC 2017-08-12 18:03:02
Writing application : mkvmerge v7.0.0 ('Where We Going') 32bit built on Jun 9 2014 15:08:34
Writing library : libebml v1.3.0 + libmatroska v1.4.1

Video
ID : 1
Format : AVC
Format/Info : Advanced Video Codec
Format profile : [email protected]
Format settings, CABAC : Yes
Format settings, RefFrames : 4 frames
Codec ID : V_MPEG4/ISO/AVC
Duration : 2 h 29 min
Bit rate : 590 kb/s
Width : 640 pixels
Height : 288 pixels
Display aspect ratio : 2.222
Frame rate mode : Constant
Frame rate : 23.976 (24000/1001) FPS
Color space : YUV
Chroma subsampling : 4:2:0
Bit depth : 8 bits
Scan type : Progressive
Bits/(Pixel*Frame) : 0.134
Stream size : 631 MiB (90%)
Title : Mafiaking
Language : Hindi
Default : Yes
Forced : No

Audio
ID : 2
Format : AAC
Format/Info : Advanced Audio Codec
Format profile : HE-AAC / LC
Codec ID : A_AAC
Duration : 2 h 29 min
Bit rate : 63.9 kb/s
Channel(s) : 2 channels
Channel positions : Front: L R
Sampling rate : 48.0 kHz / 24.0 kHz
Compression mode : Lossy
Stream size : 68.3 MiB (10%)
Title : Mafiaking
Language : Hindi
Default : Yes
Forced : No

SAMPLE WITH IN TORRENT






**To View Image In Full Size Click on Thumbnails**

Files:

Toilet Ek Prem Katha 2017 1CD PDVD x264 AAC Mafiaking M2Tv
  • Toilet Ek Prem Katha 2017 1CD PDVD x264 MP3 Mafiaking M2Tv.mkv (700.9 MB)
  • SaMple.mkv (4.3 MB)

Comments

Code:

  • udp://tracker.coppersurfer.tk:6969/announce
  • udp://thetracker.org:80/announce
  • udp://tracker.leechers-paradise.org:6969/announce
  • udp://eddie4.nl:6969/announce
  • udp://zer0day.ch:1337/announce
  • udp://tracker.sktorrent.net:6969/announce
  • udp://9.rarbg.me:2710/announce
  • udp://9.rarbg.to:2710/announce
  • udp://torrent.gresille.org:80/announce
  • udp://tracker.aletorrenty.pl:2710/announce
  • udp://tracker.piratepublic.com:1337/announce
  • udp://tracker.opentrackr.org:1337/announce
  • udp://explodie.org:6969/announce
  • udp://p4p.arenabg.ch:1337/announce